当前位置:网站首页 > 影音资源 > 电影 > 正文

[电影] [BD-Remux]雷霆沙赞! Shazam.2019.1080p.BluRay.REMUX.AVC.DTS-HD.MA.TrueHD.7.1.Atmos-FGT 35.36GB

作者:蓝扬 日期:2019-07-01 分类:电影


◎译  名 雷霆沙赞! / Billy Batson and the Legend of Shazam! / Franklin / 奇迹队长 / 沙赞 / 沙赞!(台) / 沙赞!神力集结(港) / 神奇上尉 / 雷霆沙赞
◎片  名 Shazam!
◎年  代 2019
◎产  地 美国
◎类  别 动作 / 奇幻 / 冒险
◎语  言 英语
◎上映日期 2019-04-05(美国/中国大陆)
◎IMDb评分  7.5/10 from 100273 users
◎IMDb链接  http://www.imdb.com/title/tt0448115
◎豆瓣评分 6.6/10 from 110901 users
◎豆瓣链接 https://movie.douban.com/subject/2244426/
◎片  长 132分钟
◎导  演 大卫·F·桑德伯格 David F. Sandberg
◎编  剧 亨利·盖登 Henry Gayden / 达伦·莱姆克 Darren Lemke / 比尔·帕克 Bill Parker / C·C·贝克 C.C. Beck
◎主  演 扎克瑞·莱维 Zachary Levi
      马克·斯特朗 Mark Strong
      亚瑟·安其 Asher Angel
      杰克·迪伦·格雷泽 Jack Dylan Grazer
      杰曼·翰苏 Djimon Hounsou
      费滋·赫尔曼 Faithe Herman
      约文·阿曼德 Jovan Armand
      陈琦烨 Ian Chen
      格蕾丝·富尔顿 Grace Fulton
      亚当·布罗迪 Adam Brody
      梅根·古德 Meagan Good
      米歇尔·博斯 Michelle Borth
      罗斯·巴特勒 Ross Butler
      马尔塔·米兰斯 Marta Milans
      库珀·安德鲁斯 Cooper Andrews
      罗维娜·亚瓦里 Lovina Yavari
      埃文·马什 Evan Marsh
      娜塔莉亚姗福瑞 Natalia Safran
      D·J·科特罗纳 D.J. Cotrona
      艾娃·普雷斯顿 Ava Preston
      安迪·奥修 Andi Osho
      卡尔森·迈克马克 Carson MacCormac
      莎伊娜·瑞恩 Shayna Ryan
      莎拉·贝纳尼 Sarah Bennani
      安吉莉卡·利斯克 Angelica Lisk
      辛迪·戴 Cyndy Day
      洛塔·洛森 Lotta Losten
      西蒙·诺斯伍德 Simon Northwood
      戴维·科赫史密斯 David Kohlsmith
      卢·卢·萨夫兰 Lou Lou Safran
      Adam Rodness
      杰夫·桑卡 Jeff Sanca
      阿里·巴德沙阿 Ali Badshah
      大卫·J·麦克尼尔 David J. MacNeil
      达娜·雷兹尼克 Dana Reznik
      迪索·拉莫斯 Diezel Ramos

◎标  签 DC | 超级英雄 | 沙雕 | 美国 | 喜剧 | 漫画改编 | 2019 | 科幻

◎简  介  

  因儿时与母亲失散,少年比利(亚瑟·安其 Asher Angel 饰)辗转多个家庭,却执着地要回到妈妈身边。当他再度栖身一个由养子养女的大家庭时,却阴差阳错来到某个未知的领域,并且成为古老巫师的继承人。当他喊出“沙赞”时,便会瞬间变成拥有强壮成年人身体的超级英雄雷霆沙赞(扎克瑞·莱维 Zachary Levi 饰)。比利兴奋不已,和新家的兄弟——患有腿部残疾的弗雷迪(杰克·迪伦·格雷泽 Jack Dylan Grazer 饰)共同分享这份快乐,两人更将展现各种超能力的视频上传网络,流布四方。结果,心怀叵测的赛迪斯·希瓦纳博士(马克·斯特朗 Mark Strong 饰)找上门来。
希瓦纳童年时曾与沙赞身份失之交臂,一直不受父亲兄长待见的他将灵魂出卖给七宗罪魔鬼,他更企图摧毁那个让他求之不得又恨之入骨的雷霆沙赞……

Video
ID                                       : 1
Format                                   : AVC
Format/Info                              : Advanced Video Codec
Format profile                           : [email protected]
Format settings                          : CABAC / 4 Ref Frames
Format settings, CABAC                   : Yes
Format settings, ReFrames                : 4 frames
Codec ID                                 : VMPEG4/ISO/AVC
Duration                                 : 2 h 11 min
Bit rate mode                            : Variable
Bit rate                                 : 25.3 Mb/s
Maximum bit rate                         : 30.0 Mb/s
Width                                    : 1 920 pixels
Height                                   : 1 080 pixels
Display aspect ratio                     : 16:9
Frame rate mode                          : Constant
Frame rate                               : 23.976 (24000/1001) FPS
Color space                              : YUV
Chroma subsampling                       : 4:2:0
Bit depth                                : 8 bits
Scan type                                : Progressive
Bits/(Pixel*Frame)                       : 0.509
Stream size                              : 23.3 GiB (66%)
Title                                    : Shazam.2019.1080p.BluRay.REMUX.AVC.DTS-HD.MA.TrueHD.7.1.Atmos-FGT
Language                                 : English
Default                                  : No
Forced                                   : No

Audio #1
ID                                       : 2
Format                                   : MLP FBA 16-ch
Format/Info                              : Meridian Lossless Packing FBA with 16-channel presentation
Commercial name                          : Dolby TrueHD with Dolby Atmos
Codec ID                                 : ATRUEHD
Duration                                 : 2 h 11 min
Bit rate mode                            : Variable
Bit rate                                 : 3 645 kb/s
Maximum bit rate                         : 5 931 kb/s
Channel(s)                               : 8 channels
Channel layout                           : L R C LFE Ls Rs Lb Rb
Sampling rate                            : 48.0 kHz
Frame rate                               : 1 200.000 FPS (40 SPF)
Compression mode                         : Lossless
Stream size                              : 3.35 GiB (9%)
Title                                    : Shazam.2019.1080p.BluRay.REMUX.AVC.DTS-HD.MA.TrueHD.7.1.Atmos-FGT
Language                                 : English
Default                                  : Yes
Forced                                   : No
Number of dynamic objects                : 15
Bed channel count                        : 1 channel
Bed channel configuration                : LFE

Audio #2
ID                                       : 3
Format                                   : DTS XLL
Format/Info                              : Digital Theater Systems
Commercial name                          : DTS-HD Master Audio
Codec ID                                 : ADTS
Duration                                 : 2 h 11 min
Bit rate mode                            : Variable
Bit rate                                 : 4 217 kb/s
Channel(s)                               : 8 channels
Channel layout                           : C L R LFE Lb Rb Lss Rss
Sampling rate                            : 48.0 kHz
Frame rate                               : 93.750 FPS (512 SPF)
Bit depth                                : 24 bits
Compression mode                         : Lossless
Stream size                              : 3.88 GiB (11%)
Title                                    : Shazam.2019.1080p.BluRay.REMUX.AVC.DTS-HD.MA.TrueHD.7.1.Atmos-FGT
Language                                 : English
Default                                  : No
Forced                                   : No

Audio #3
ID                                       : 4
Format                                   : AC-3
Format/Info                              : Audio Coding 3
Commercial name                          : Dolby Digital
Codec ID                                 : AAC3
Duration                                 : 2 h 11 min
Bit rate mode                            : Constant
Bit rate                                 : 448 kb/s
Channel(s)                               : 6 channels
Channel layout                           : L R C LFE Ls Rs
Sampling rate                            : 48.0 kHz
Frame rate                               : 31.250 FPS (1536 SPF)
Bit depth                                : 16 bits
Compression mode                         : Lossy
Stream size                              : 422 MiB (1%)
Title                                    : Shazam.2019.1080p.BluRay.REMUX.AVC.DTS-HD.MA.TrueHD.7.1.Atmos-FGT
Language                                 : English
Service kind                             : Complete Main
Default                                  : No
Forced                                   : No

Audio #4
ID                                       : 5
Format                                   : AC-3
Format/Info                              : Audio Coding 3
Commercial name                          : Dolby Digital
Codec ID                                 : AAC3
Duration                                 : 2 h 11 min
Bit rate mode                            : Constant
Bit rate                                 : 448 kb/s
Channel(s)                               : 6 channels
Channel layout                           : L R C LFE Ls Rs
Sampling rate                            : 48.0 kHz
Frame rate                               : 31.250 FPS (1536 SPF)
Bit depth                                : 16 bits
Compression mode                         : Lossy
Stream size                              : 422 MiB (1%)
Title                                    : Shazam.2019.1080p.BluRay.REMUX.AVC.DTS-HD.MA.TrueHD.7.1.Atmos-FGT
Language                                 : English
Service kind                             : Complete Main
Default                                  : No
Forced                                   : No

Audio #5
ID                                       : 6
Format                                   : AC-3
Format/Info                              : Audio Coding 3
Commercial name                          : Dolby Digital
Codec ID                                 : AAC3
Duration                                 : 2 h 11 min
Bit rate mode                            : Constant
Bit rate                                 : 448 kb/s
Channel(s)                               : 6 channels
Channel layout                           : L R C LFE Ls Rs
Sampling rate                            : 48.0 kHz
Frame rate                               : 31.250 FPS (1536 SPF)
Bit depth                                : 16 bits
Compression mode                         : Lossy
Stream size                              : 422 MiB (1%)
Title                                    : Shazam.2019.1080p.BluRay.REMUX.AVC.DTS-HD.MA.TrueHD.7.1.Atmos-FGT
Language                                 : Chinese
Service kind                             : Complete Main
Default                                  : No
Forced                                   : No

Audio #6
ID                                       : 7
Format                                   : AC-3
Format/Info                              : Audio Coding 3
Commercial name                          : Dolby Digital
Codec ID                                 : AAC3
Duration                                 : 2 h 11 min
Bit rate mode                            : Constant
Bit rate                                 : 448 kb/s
Channel(s)                               : 6 channels
Channel layout                           : L R C LFE Ls Rs
Sampling rate                            : 48.0 kHz
Frame rate                               : 31.250 FPS (1536 SPF)
Bit depth                                : 16 bits
Compression mode                         : Lossy
Stream size                              : 422 MiB (1%)
Title                                    : Shazam.2019.1080p.BluRay.REMUX.AVC.DTS-HD.MA.TrueHD.7.1.Atmos-FGT
Language                                 : Czech
Service kind                             : Complete Main
Default                                  : No
Forced                                   : No

Audio #7
ID                                       : 8
Format                                   : AC-3
Format/Info                              : Audio Coding 3
Commercial name                          : Dolby Digital
Codec ID                                 : AAC3
Duration                                 : 2 h 11 min
Bit rate mode                            : Constant
Bit rate                                 : 448 kb/s
Channel(s)                               : 6 channels
Channel layout                           : L R C LFE Ls Rs
Sampling rate                            : 48.0 kHz
Frame rate                               : 31.250 FPS (1536 SPF)
Bit depth                                : 16 bits
Compression mode                         : Lossy
Stream size                              : 422 MiB (1%)
Title                                    : Shazam.2019.1080p.BluRay.REMUX.AVC.DTS-HD.MA.TrueHD.7.1.Atmos-FGT
Language                                 : Hindi
Service kind                             : Complete Main
Default                                  : No
Forced                                   : No

Audio #8
ID                                       : 9
Format                                   : AC-3
Format/Info                              : Audio Coding 3
Commercial name                          : Dolby Digital
Codec ID                                 : AAC3
Duration                                 : 2 h 11 min
Bit rate mode                            : Constant
Bit rate                                 : 448 kb/s
Channel(s)                               : 6 channels
Channel layout                           : L R C LFE Ls Rs
Sampling rate                            : 48.0 kHz
Frame rate                               : 31.250 FPS (1536 SPF)
Bit depth                                : 16 bits
Compression mode                         : Lossy
Stream size                              : 422 MiB (1%)
Title                                    : Shazam.2019.1080p.BluRay.REMUX.AVC.DTS-HD.MA.TrueHD.7.1.Atmos-FGT
Language                                 : Russian
Service kind                             : Complete Main
Default                                  : No
Forced                                   : No

Audio #9
ID                                       : 10
Format                                   : AC-3
Format/Info                              : Audio Coding 3
Commercial name                          : Dolby Digital
Codec ID                                 : AAC3
Duration                                 : 2 h 11 min
Bit rate mode                            : Constant
Bit rate                                 : 448 kb/s
Channel(s)                               : 6 channels
Channel layout                           : L R C LFE Ls Rs
Sampling rate                            : 48.0 kHz
Frame rate                               : 31.250 FPS (1536 SPF)
Bit depth                                : 16 bits
Compression mode                         : Lossy
Stream size                              : 422 MiB (1%)
Title                                    : Shazam.2019.1080p.BluRay.REMUX.AVC.DTS-HD.MA.TrueHD.7.1.Atmos-FGT
Language                                 : Tamil
Service kind                             : Complete Main
Default                                  : No
Forced                                   : No

Audio #10
ID                                       : 11
Format                                   : AC-3
Format/Info                              : Audio Coding 3
Commercial name                          : Dolby Digital
Codec ID                                 : AAC3
Duration                                 : 2 h 11 min
Bit rate mode                            : Constant
Bit rate                                 : 448 kb/s
Channel(s)                               : 6 channels
Channel layout                           : L R C LFE Ls Rs
Sampling rate                            : 48.0 kHz
Frame rate                               : 31.250 FPS (1536 SPF)
Bit depth                                : 16 bits
Compression mode                         : Lossy
Stream size                              : 422 MiB (1%)
Title                                    : Shazam.2019.1080p.BluRay.REMUX.AVC.DTS-HD.MA.TrueHD.7.1.Atmos-FGT
Language                                 : Telugu
Service kind                             : Complete Main
Default                                  : No
Forced                                   : No

Audio #11
ID                                       : 12
Format                                   : AC-3
Format/Info                              : Audio Coding 3
Commercial name                          : Dolby Digital
Codec ID                                 : AAC3
Duration                                 : 2 h 11 min
Bit rate mode                            : Constant
Bit rate                                 : 448 kb/s
Channel(s)                               : 6 channels
Channel layout                           : L R C LFE Ls Rs
Sampling rate                            : 48.0 kHz
Frame rate                               : 31.250 FPS (1536 SPF)
Bit depth                                : 16 bits
Compression mode                         : Lossy
Stream size                              : 422 MiB (1%)
Title                                    : Shazam.2019.1080p.BluRay.REMUX.AVC.DTS-HD.MA.TrueHD.7.1.Atmos-FGT
Language                                 : Thai
Service kind                             : Complete Main
Default                                  : No
Forced                                   : No

Audio #12
ID                                       : 13
Format                                   : AC-3
Format/Info                              : Audio Coding 3
Commercial name                          : Dolby Digital
Codec ID                                 : AAC3
Duration                                 : 2 h 11 min
Bit rate mode                            : Constant
Bit rate                                 : 448 kb/s
Channel(s)                               : 6 channels
Channel layout                           : L R C LFE Ls Rs
Sampling rate                            : 48.0 kHz
Frame rate                               : 31.250 FPS (1536 SPF)
Bit depth                                : 16 bits
Compression mode                         : Lossy
Stream size                              : 422 MiB (1%)
Title                                    : Shazam.2019.1080p.BluRay.REMUX.AVC.DTS-HD.MA.TrueHD.7.1.Atmos-FGT
Language                                 : Turkish
Service kind                             : Complete Main
Default                                  : No
Forced                                   : No

Audio #13
ID                                       : 14
Format                                   : AC-3
Format/Info                              : Audio Coding 3
Commercial name                          : Dolby Digital
Codec ID                                 : AAC3
Duration                                 : 2 h 11 min
Bit rate mode                            : Constant
Bit rate                                 : 448 kb/s
Channel(s)                               : 6 channels
Channel layout                           : L R C LFE Ls Rs
Sampling rate                            : 48.0 kHz
Frame rate                               : 31.250 FPS (1536 SPF)
Bit depth                                : 16 bits
Compression mode                         : Lossy
Stream size                              : 422 MiB (1%)
Title                                    : Shazam.2019.1080p.BluRay.REMUX.AVC.DTS-HD.MA.TrueHD.7.1.Atmos-FGT
Language                                 : Hungarian
Service kind                             : Complete Main
Default                                  : No
Forced                                   : No

Text #1
ID                                       : 15
Format                                   : UTF-8
Codec ID                                 : STEXT/UTF8
Codec ID/Info                            : UTF-8 Plain Text
Duration                                 : 2 h 10 min
Bit rate                                 : 52 b/s
Count of elements                        : 1755
Stream size                              : 50.2 KiB (0%)
Title                                    : English-SRT
Language                                 : English
Default                                  : Yes
Forced                                   : No

Text #2
ID                                       : 16
Format                                   : UTF-8
Codec ID                                 : STEXT/UTF8
Codec ID/Info                            : UTF-8 Plain Text
Duration                                 : 2 h 10 min
Bit rate                                 : 64 b/s
Count of elements                        : 2182
Stream size                              : 61.7 KiB (0%)
Title                                    : English-SDH-SRT
Language                                 : English
Default                                  : No
Forced                                   : No

Text #3
ID                                       : 17
Format                                   : PGS
Muxing mode                              : zlib
Codec ID                                 : SHDMV/PGS
Codec ID/Info                            : Picture based subtitle format used on BDs/HD-DVDs
Duration                                 : 2 h 11 min
Bit rate                                 : 39.8 kb/s
Count of elements                        : 4310
Stream size                              : 37.4 MiB (0%)
Title                                    : English-PGS
Language                                 : English
Default                                  : No
Forced                                   : No

Text #4
ID                                       : 18
Format                                   : PGS
Muxing mode                              : zlib
Codec ID                                 : SHDMV/PGS
Codec ID/Info                            : Picture based subtitle format used on BDs/HD-DVDs
Duration                                 : 2 h 10 min
Bit rate                                 : 28.2 kb/s
Count of elements                        : 3160
Stream size                              : 26.4 MiB (0%)
Title                                    : Chinese-PGS
Language                                 : Chinese
Default                                  : No
Forced                                   : No

Text #5
ID                                       : 19
Format                                   : PGS
Muxing mode                              : zlib
Codec ID                                 : SHDMV/PGS
Codec ID/Info                            : Picture based subtitle format used on BDs/HD-DVDs
Duration                                 : 2 h 10 min
Bit rate                                 : 28.0 kb/s
Count of elements                        : 3514
Stream size                              : 26.2 MiB (0%)
Title                                    : Chinese-PGS
Language                                 : Chinese
Default                                  : No
Forced                                   : No

Text #6
ID                                       : 20
Format                                   : PGS
Muxing mode                              : zlib
Codec ID                                 : SHDMV/PGS
Codec ID/Info                            : Picture based subtitle format used on BDs/HD-DVDs
Duration                                 : 2 h 10 min
Bit rate                                 : 18.2 kb/s
Count of elements                        : 3502
Stream size                              : 17.1 MiB (0%)
Title                                    : Korean-PGS
Language                                 : Korean
Default                                  : No
Forced                                   : No

Text #7
ID                                       : 21
Format                                   : PGS
Muxing mode                              : zlib
Codec ID                                 : SHDMV/PGS
Codec ID/Info                            : Picture based subtitle format used on BDs/HD-DVDs
Duration                                 : 2 h 10 min
Bit rate                                 : 18.1 kb/s
Count of elements                        : 3514
Stream size                              : 16.9 MiB (0%)
Title                                    : Arabic-PGS
Language                                 : Arabic
Default                                  : No
Forced                                   : No

Text #8
ID                                       : 22
Format                                   : PGS
Muxing mode                              : zlib
Codec ID                                 : SHDMV/PGS
Codec ID/Info                            : Picture based subtitle format used on BDs/HD-DVDs
Duration                                 : 2 h 10 min
Bit rate                                 : 27.8 kb/s
Count of elements                        : 3518
Stream size                              : 26.0 MiB (0%)
Title                                    : Bulgarian-PGS
Language                                 : Bulgarian
Default                                  : No
Forced                                   : No

Text #9
ID                                       : 23
Format                                   : PGS
Muxing mode                              : zlib
Codec ID                                 : SHDMV/PGS
Codec ID/Info                            : Picture based subtitle format used on BDs/HD-DVDs
Duration                                 : 2 h 10 min
Bit rate                                 : 29.8 kb/s
Count of elements                        : 3488
Stream size                              : 27.9 MiB (0%)
Title                                    : Croatian-PGS
Language                                 : Croatian
Default                                  : No
Forced                                   : No

Text #10
ID                                       : 24
Format                                   : PGS
Muxing mode                              : zlib
Codec ID                                 : SHDMV/PGS
Codec ID/Info                            : Picture based subtitle format used on BDs/HD-DVDs
Duration                                 : 2 h 10 min
Bit rate                                 : 29.5 kb/s
Count of elements                        : 3502
Stream size                              : 27.6 MiB (0%)
Title                                    : Czech-PGS
Language                                 : Czech
Default                                  : No
Forced                                   : No

Text #11
ID                                       : 25
Format                                   : PGS
Muxing mode                              : zlib
Codec ID                                 : SHDMV/PGS
Codec ID/Info                            : Picture based subtitle format used on BDs/HD-DVDs
Duration                                 : 2 h 8 min
Bit rate                                 : 700 b/s
Count of elements                        : 78
Stream size                              : 657 KiB (0%)
Title                                    : Czech-FORCED-PGS
Language                                 : Czech
Default                                  : No
Forced                                   : No

Text #12
ID                                       : 26
Format                                   : PGS
Muxing mode                              : zlib
Codec ID                                 : SHDMV/PGS
Codec ID/Info                            : Picture based subtitle format used on BDs/HD-DVDs
Duration                                 : 2 h 10 min
Bit rate                                 : 27.9 kb/s
Count of elements                        : 2492
Stream size                              : 26.1 MiB (0%)
Title                                    : Danish-PGS
Language                                 : Danish
Default                                  : No
Forced                                   : No

Text #13
ID                                       : 27
Format                                   : PGS
Muxing mode                              : zlib
Codec ID                                 : SHDMV/PGS
Codec ID/Info                            : Picture based subtitle format used on BDs/HD-DVDs
Duration                                 : 2 h 10 min
Bit rate                                 : 31.7 kb/s
Count of elements                        : 3498
Stream size                              : 29.6 MiB (0%)
Title                                    : Estonian-PGS
Language                                 : Estonian
Default                                  : No
Forced                                   : No

Text #14
ID                                       : 28
Format                                   : PGS
Muxing mode                              : zlib
Codec ID                                 : SHDMV/PGS
Codec ID/Info                            : Picture based subtitle format used on BDs/HD-DVDs
Duration                                 : 2 h 10 min
Bit rate                                 : 26.7 kb/s
Count of elements                        : 3496
Stream size                              : 25.0 MiB (0%)
Title                                    : Finnish-PGS
Language                                 : Finnish
Default                                  : No
Forced                                   : No

Text #15
ID                                       : 29
Format                                   : PGS
Muxing mode                              : zlib
Codec ID                                 : SHDMV/PGS
Codec ID/Info                            : Picture based subtitle format used on BDs/HD-DVDs
Duration                                 : 2 h 10 min
Bit rate                                 : 24.8 kb/s
Count of elements                        : 3520
Stream size                              : 23.2 MiB (0%)
Title                                    : Hebrew-PGS
Language                                 : Hebrew
Default                                  : No
Forced                                   : No

Text #16
ID                                       : 30
Format                                   : PGS
Muxing mode                              : zlib
Codec ID                                 : SHDMV/PGS
Codec ID/Info                            : Picture based subtitle format used on BDs/HD-DVDs
Duration                                 : 2 h 10 min
Bit rate                                 : 30.9 kb/s
Count of elements                        : 3456
Stream size                              : 28.9 MiB (0%)
Title                                    : Hungarian-PGS
Language                                 : Hungarian
Default                                  : No
Forced                                   : No

Text #17
ID                                       : 31
Format                                   : PGS
Muxing mode                              : zlib
Codec ID                                 : SHDMV/PGS
Codec ID/Info                            : Picture based subtitle format used on BDs/HD-DVDs
Duration                                 : 2 h 10 min
Bit rate                                 : 721 b/s
Count of elements                        : 76
Stream size                              : 690 KiB (0%)
Title                                    : Hungarian-FORCED-PGS
Language                                 : Hungarian
Default                                  : No
Forced                                   : No

Text #18
ID                                       : 32
Format                                   : PGS
Muxing mode                              : zlib
Codec ID                                 : SHDMV/PGS
Codec ID/Info                            : Picture based subtitle format used on BDs/HD-DVDs
Duration                                 : 2 h 10 min
Bit rate                                 : 28.7 kb/s
Count of elements                        : 3500
Stream size                              : 26.8 MiB (0%)
Title                                    : Latvian-PGS
Language                                 : Latvian
Default                                  : No
Forced                                   : No

Text #19
ID                                       : 33
Format                                   : PGS
Muxing mode                              : zlib
Codec ID                                 : SHDMV/PGS
Codec ID/Info                            : Picture based subtitle format used on BDs/HD-DVDs
Duration                                 : 2 h 10 min
Bit rate                                 : 29.3 kb/s
Count of elements                        : 3486
Stream size                              : 27.4 MiB (0%)
Title                                    : Lithuanian-PGS
Language                                 : Lithuanian
Default                                  : No
Forced                                   : No

Text #20
ID                                       : 34
Format                                   : PGS
Muxing mode                              : zlib
Codec ID                                 : SHDMV/PGS
Codec ID/Info                            : Picture based subtitle format used on BDs/HD-DVDs
Duration                                 : 2 h 10 min
Bit rate                                 : 28.5 kb/s
Count of elements                        : 3080
Stream size                              : 26.7 MiB (0%)
Title                                    : Norwegian-PGS
Language                                 : Norwegian
Default                                  : No
Forced                                   : No

Text #21
ID                                       : 35
Format                                   : PGS
Muxing mode                              : zlib
Codec ID                                 : SHDMV/PGS
Codec ID/Info                            : Picture based subtitle format used on BDs/HD-DVDs
Duration                                 : 2 h 10 min
Bit rate                                 : 30.6 kb/s
Count of elements                        : 3474
Stream size                              : 28.6 MiB (0%)
Title                                    : Portuguese-PGS
Language                                 : Portuguese
Default                                  : No
Forced                                   : No

Text #22
ID                                       : 36
Format                                   : PGS
Muxing mode                              : zlib
Codec ID                                 : SHDMV/PGS
Codec ID/Info                            : Picture based subtitle format used on BDs/HD-DVDs
Duration                                 : 2 h 10 min
Bit rate                                 : 29.0 kb/s
Count of elements                        : 3282
Stream size                              : 27.1 MiB (0%)
Title                                    : Romanian-PGS
Language                                 : Romanian
Default                                  : No
Forced                                   : No

Text #23
ID                                       : 37
Format                                   : PGS
Muxing mode                              : zlib
Codec ID                                 : SHDMV/PGS
Codec ID/Info                            : Picture based subtitle format used on BDs/HD-DVDs
Duration                                 : 2 h 10 min
Bit rate                                 : 26.0 kb/s
Count of elements                        : 2628
Stream size                              : 24.4 MiB (0%)
Title                                    : Slovenian-PGS
Language                                 : Slovenian
Default                                  : No
Forced                                   : No

Text #24
ID                                       : 38
Format                                   : PGS
Muxing mode                              : zlib
Codec ID                                 : SHDMV/PGS
Codec ID/Info                            : Picture based subtitle format used on BDs/HD-DVDs
Duration                                 : 2 h 10 min
Bit rate                                 : 28.4 kb/s
Count of elements                        : 3486
Stream size                              : 26.6 MiB (0%)
Title                                    : Swedish-PGS
Language                                 : Swedish
Default                                  : No
Forced                                   : No

Text #25
ID                                       : 39
Format                                   : PGS
Muxing mode                              : zlib
Codec ID                                 : SHDMV/PGS
Codec ID/Info                            : Picture based subtitle format used on BDs/HD-DVDs
Duration                                 : 2 h 10 min
Bit rate                                 : 29.4 kb/s
Count of elements                        : 3520
Stream size                              : 27.5 MiB (0%)
Title                                    : Russian-PGS
Language                                 : Russian
Default                                  : No
Forced                                   : No

Text #26
ID                                       : 40
Format                                   : PGS
Muxing mode                              : zlib
Codec ID                                 : SHDMV/PGS
Codec ID/Info                            : Picture based subtitle format used on BDs/HD-DVDs
Duration                                 : 2 h 10 min
Bit rate                                 : 1 261 b/s
Count of elements                        : 128
Stream size                              : 1.18 MiB (0%)
Title                                    : Russian-FORCED-PGS
Language                                 : Russian
Default                                  : No
Forced                                   : No

Text #27
ID                                       : 41
Format                                   : PGS
Muxing mode                              : zlib
Codec ID                                 : SHDMV/PGS
Codec ID/Info                            : Picture based subtitle format used on BDs/HD-DVDs
Duration                                 : 2 h 10 min
Bit rate                                 : 30.3 kb/s
Count of elements                        : 3520
Stream size                              : 28.4 MiB (0%)
Title                                    : Thai-PGS
Language                                 : Thai
Default                                  : No
Forced                                   : No

Text #28
ID                                       : 42
Format                                   : PGS
Muxing mode                              : zlib
Codec ID                                 : SHDMV/PGS
Codec ID/Info                            : Picture based subtitle format used on BDs/HD-DVDs
Duration                                 : 2 h 8 min
Bit rate                                 : 789 b/s
Count of elements                        : 96
Stream size                              : 740 KiB (0%)
Title                                    : Thai-FORCED-PGS
Language                                 : Thai
Default                                  : No
Forced                                   : No

Text #29
ID                                       : 43
Format                                   : PGS
Muxing mode                              : zlib
Codec ID                                 : SHDMV/PGS
Codec ID/Info                            : Picture based subtitle format used on BDs/HD-DVDs
Duration                                 : 2 h 10 min
Bit rate                                 : 32.0 kb/s
Count of elements                        : 3508
Stream size                              : 30.0 MiB (0%)
Title                                    : Turkish-PGS
Language                                 : Turkish
Default                                  : No
Forced                                   : No

Text #30
ID                                       : 44
Format                                   : PGS
Muxing mode                              : zlib
Codec ID                                 : SHDMV/PGS
Codec ID/Info                            : Picture based subtitle format used on BDs/HD-DVDs
Duration                                 : 2 h 10 min
Bit rate                                 : 1 114 b/s
Count of elements                        : 116
Stream size                              : 1.04 MiB (0%)
Title                                    : Turkish-FORCED-PGS
Language                                 : Turkish
Default                                  : No
Forced                                   : No

Text #31
ID                                       : 45
Format                                   : PGS
Muxing mode                              : zlib
Codec ID                                 : SHDMV/PGS
Codec ID/Info                            : Picture based subtitle format used on BDs/HD-DVDs
Duration                                 : 2 h 11 min
Bit rate                                 : 36.0 kb/s
Count of elements                        : 3898
Stream size                              : 33.7 MiB (0%)
Title                                    : Chinese-PGS
Language                                 : Chinese
Default                                  : No
Forced                                   : No

Text #32
ID                                       : 46
Format                                   : PGS
Muxing mode                              : zlib
Codec ID                                 : SHDMV/PGS
Codec ID/Info                            : Picture based subtitle format used on BDs/HD-DVDs
Duration                                 : 2 h 10 min
Bit rate                                 : 2 383 b/s
Count of elements                        : 214
Stream size                              : 2.23 MiB (0%)
Title                                    : Chinese-PGS
Language                                 : Chinese
Default                                  : No
Forced                                   : No

Text #33
ID                                       : 47
Format                                   : PGS
Muxing mode                              : zlib
Codec ID                                 : SHDMV/PGS
Codec ID/Info                            : Picture based subtitle format used on BDs/HD-DVDs
Duration                                 : 2 h 8 min
Bit rate                                 : 629 b/s
Count of elements                        : 98
Stream size                              : 591 KiB (0%)
Title                                    : Telugu-PGS
Language                                 : Telugu
Default                                  : No
Forced                                   : No

Text #34
ID                                       : 48
Format                                   : PGS
Muxing mode                              : zlib
Codec ID                                 : SHDMV/PGS
Codec ID/Info                            : Picture based subtitle format used on BDs/HD-DVDs
Duration                                 : 2 h 8 min
Bit rate                                 : 821 b/s
Count of elements                        : 96
Stream size                              : 771 KiB (0%)
Title                                    : Tamil-PGS
Language                                 : Tamil
Default                                  : No
Forced                                   : No

Text #35
ID                                       : 49
Format                                   : PGS
Muxing mode                              : zlib
Codec ID                                 : SHDMV/PGS
Codec ID/Info                            : Picture based subtitle format used on BDs/HD-DVDs
Duration                                 : 2 h 8 min
Bit rate                                 : 625 b/s
Count of elements                        : 106
Stream size                              : 587 KiB (0%)
Title                                    : Hindi-PGS
Language                                 : Hindi
Default                                  : No
Forced                                   : No

Menu
00:00:00.000                             : en:Chapter 01
00:08:18.789                             : en:Chapter 02
00:15:11.285                             : en:Chapter 03
00:25:22.395                             : en:Chapter 04
00:31:57.624                             : en:Chapter 05
00:39:00.254                             : en:Chapter 06
00:50:07.713                             : en:Chapter 07
01:01:28.810                             : en:Chapter 08
01:08:51.502                             : en:Chapter 09
01:16:40.470                             : en:Chapter 10
01:24:29.355                             : en:Chapter 11
01:34:00.676                             : en:Chapter 12
01:43:01.175                             : en:Chapter 13
01:52:53.850                             : en:Chapter 14
02:00:44.445                             : en:Chapter 15


   下载地址:

飞猫云:http://fsl.to/zbi2vi

yunfile:http://fourpan.com/fs/8laeny4an6g758a7/

无广告/干净云/直链/BT下载:

隐藏内容 (VIP会员专属)
登录后刷新页面即可见内容

郑重声明:

本站所有内容均由互联网收集整理、网友上传,并且以计算机技术研究交流为目的,仅供大家参考、学习,不存在任何商业目的与商业用途。

若您需要商业运营或用于其他商业活动,请您购买正版授权并合法使用。 我们不承担任何技术及版权问题,且不对任何资源负法律责任。

如资源失效请留言联系站长,压缩文件请在电脑上用最新版的好压或者360压缩软件解压,请勿在线解压,手机解压失败的勿扰。

友情小提示,网赚盘链接失效不补,要稳定请移步干净云或BT,BT推荐用uTorrent或BitComet下载。


欢迎 发表评论:

请填写验证码
享受更多资源下载可加入本站VIP会员!登录注册
登录
用户名
密码
注册
用户名
密码
确认密码
昵称
邮箱
验证码
找回密码
用户名
邮箱
※ 重置链接将发送到邮箱
请先 登录 再评论,若不是会员请先 注册